<?xml version="1.0" encoding="UTF-8"?>

<svg version="1.2" baseProfile="tiny" width="76.49mm" height="31.22mm" viewBox="35635 28680 7649 3122" preserveAspectRatio="xMidYMid" fill-rule="evenodd" stroke-width="28.222" stroke-linejoin="round" xmlns="http://www.w3.org/2000/svg" xmlns:xlink="http://www.w3.org/1999/xlink" xml:space="preserve">
 <defs>
  <font id="EmbeddedFont_1" horiz-adv-x="2048">
   <font-face font-family="Arial embedded" units-per-em="2048" font-weight="normal" font-style="italic" ascent="1852" descent="450"/>
   <missing-glyph horiz-adv-x="2048" d="M 0,0 L 2047,0 2047,2047 0,2047 0,0 Z"/>
   <glyph unicode="è" horiz-adv-x="980" d="M 848,361 L 1024,343 C 999,256 941,173 850,94 759,15 650,-24 524,-24 445,-24 373,-6 308,31 242,67 192,120 158,189 123,258 106,337 106,426 106,542 133,655 187,764 240,873 310,954 395,1007 480,1060 573,1086 672,1086 799,1086 900,1047 976,968 1051,889 1089,782 1089,646 1089,594 1084,541 1075,486 L 293,486 C 290,465 289,447 289,430 289,331 312,255 358,203 403,150 459,124 525,124 587,124 648,144 708,185 768,226 815,284 848,361 Z M 322,624 L 918,624 C 919,643 919,656 919,664 919,755 896,824 851,873 806,921 747,945 676,945 599,945 528,918 465,865 401,812 353,731 322,624 Z M 767,1191 L 572,1466 792,1466 908,1191 767,1191 Z"/>
   <glyph unicode="r" horiz-adv-x="795" d="M 68,0 L 290,1062 450,1062 405,845 C 460,927 513,988 566,1027 618,1066 671,1086 726,1086 762,1086 806,1073 859,1047 L 785,879 C 754,902 719,913 682,913 619,913 554,878 487,807 420,736 368,609 330,426 L 240,0 68,0 Z"/>
   <glyph unicode="o" horiz-adv-x="1007" d="M 100,403 C 100,610 161,782 283,918 384,1030 516,1086 679,1086 807,1086 910,1046 989,966 1067,886 1106,778 1106,642 1106,520 1081,407 1032,302 983,197 913,116 822,60 731,4 635,-24 534,-24 451,-24 376,-6 309,29 241,64 189,114 154,179 118,244 100,318 100,403 Z M 281,421 C 281,321 305,245 353,194 401,142 462,116 536,116 575,116 613,124 651,140 689,155 724,179 757,211 790,243 818,280 841,321 864,362 882,406 896,453 917,519 927,582 927,643 927,739 903,814 855,867 806,920 745,946 672,946 615,946 564,933 517,906 470,879 428,839 391,787 353,735 325,675 308,606 290,537 281,475 281,421 Z"/>
   <glyph unicode="n" horiz-adv-x="1033" d="M 68,0 L 290,1062 454,1062 415,877 C 486,950 553,1003 615,1036 677,1069 740,1086 805,1086 891,1086 959,1063 1008,1016 1057,969 1081,907 1081,829 1081,790 1072,728 1055,643 L 920,0 739,0 880,673 C 894,738 901,787 901,818 901,853 889,882 865,904 840,926 805,937 759,937 666,937 584,904 512,837 439,770 386,656 352,494 L 249,0 68,0 Z"/>
   <glyph unicode="m" horiz-adv-x="1588" d="M 67,0 L 289,1062 470,1062 433,887 C 500,962 561,1014 614,1043 667,1072 724,1086 786,1086 852,1086 907,1069 952,1034 996,999 1025,950 1039,887 1093,954 1150,1004 1210,1037 1269,1070 1332,1086 1398,1086 1487,1086 1553,1065 1598,1023 1642,981 1664,922 1664,846 1664,813 1656,759 1641,684 L 1498,0 1317,0 1463,702 C 1476,759 1482,800 1482,825 1482,860 1471,887 1449,907 1427,927 1396,937 1356,937 1302,937 1247,921 1191,888 1135,855 1092,813 1061,760 1030,707 1002,625 979,515 L 871,0 690,0 840,717 C 851,766 856,800 856,821 856,856 845,884 824,905 802,926 774,937 739,937 688,937 634,921 578,888 521,855 475,810 440,752 405,693 376,610 353,502 L 248,0 67,0 Z"/>
   <glyph unicode="l" horiz-adv-x="477" d="M 54,0 L 360,1466 541,1466 235,0 54,0 Z"/>
   <glyph unicode="i" horiz-adv-x="477" d="M 325,1261 L 368,1466 548,1466 505,1261 325,1261 Z M 61,0 L 283,1062 464,1062 242,0 61,0 Z"/>
   <glyph unicode="e" horiz-adv-x="980" d="M 848,361 L 1024,343 C 999,256 941,173 850,94 759,15 650,-24 524,-24 445,-24 373,-6 308,31 242,67 192,120 158,189 123,258 106,337 106,426 106,542 133,655 187,764 240,873 310,954 395,1007 480,1060 573,1086 672,1086 799,1086 900,1047 976,968 1051,889 1089,782 1089,646 1089,594 1084,541 1075,486 L 293,486 C 290,465 289,447 289,430 289,331 312,255 358,203 403,150 459,124 525,124 587,124 648,144 708,185 768,226 815,284 848,361 Z M 322,624 L 918,624 C 919,643 919,656 919,664 919,755 896,824 851,873 806,921 747,945 676,945 599,945 528,918 465,865 401,812 353,731 322,624 Z"/>
   <glyph unicode="d" horiz-adv-x="1112" d="M 784,154 C 681,35 573,-24 460,-24 359,-24 276,13 209,88 142,162 108,270 108,411 108,540 135,659 188,766 241,873 307,953 387,1006 466,1059 546,1086 626,1086 758,1086 858,1022 925,895 L 1045,1466 1225,1466 919,0 752,0 784,154 Z M 288,445 C 288,371 295,313 310,270 325,227 350,192 385,164 420,135 463,121 512,121 594,121 668,164 735,249 824,362 869,502 869,669 869,753 847,819 803,866 759,913 704,937 637,937 594,937 554,927 519,908 483,889 448,856 413,810 378,763 348,704 324,633 300,562 288,499 288,445 Z"/>
   <glyph unicode="c" horiz-adv-x="927" d="M 801,387 L 982,368 C 937,235 872,137 789,73 705,8 610,-24 503,-24 388,-24 294,13 223,88 151,163 115,267 115,401 115,517 138,631 184,743 230,855 296,940 382,999 467,1057 565,1086 675,1086 789,1086 879,1054 946,990 1013,925 1046,840 1046,734 L 868,722 C 867,789 848,842 810,880 771,918 721,937 658,937 585,937 522,914 469,868 416,822 374,752 344,659 313,565 298,475 298,388 298,297 318,229 358,184 398,139 447,116 506,116 565,116 621,138 675,183 728,228 770,296 801,387 Z"/>
   <glyph unicode="a" horiz-adv-x="980" d="M 784,132 C 721,78 661,39 603,14 545,-11 483,-24 417,-24 319,-24 240,5 180,63 120,120 90,194 90,284 90,343 104,396 131,442 158,487 193,524 238,552 283,579 337,599 402,611 443,619 520,625 634,630 747,635 829,647 878,666 892,715 899,756 899,789 899,831 884,864 853,888 811,921 750,938 669,938 593,938 531,921 483,888 434,854 399,806 377,744 L 194,760 C 231,865 291,946 372,1002 453,1058 555,1086 678,1086 809,1086 913,1055 990,992 1049,945 1078,885 1078,810 1078,753 1070,688 1053,613 L 994,349 C 975,265 966,197 966,144 966,111 973,63 988,0 L 805,0 C 795,35 788,79 784,132 Z M 851,538 C 826,528 799,520 770,515 741,510 692,504 624,498 519,489 444,477 401,463 358,448 325,425 303,394 281,363 270,328 270,290 270,239 288,198 323,165 358,132 407,116 472,116 532,116 590,132 645,164 700,195 744,239 776,296 808,353 833,433 851,538 Z"/>
   <glyph unicode="T" horiz-adv-x="1192" d="M 465,0 L 736,1299 255,1299 290,1466 1444,1466 1409,1299 932,1299 661,0 465,0 Z"/>
   <glyph unicode="S" horiz-adv-x="1218" d="M 144,474 L 336,492 334,441 C 334,384 347,333 373,286 399,239 442,202 502,177 562,151 633,138 716,138 833,138 923,164 985,215 1046,266 1077,325 1077,391 1077,437 1061,479 1028,517 995,554 904,605 755,669 640,719 561,757 519,784 453,827 404,875 373,926 342,977 326,1035 326,1100 326,1175 347,1243 388,1304 429,1365 490,1411 570,1443 649,1475 739,1491 839,1491 958,1491 1059,1471 1141,1431 1223,1391 1283,1338 1320,1271 1357,1204 1375,1141 1375,1080 1375,1074 1375,1064 1374,1050 L 1185,1035 C 1185,1076 1181,1109 1174,1132 1161,1173 1140,1207 1112,1235 1084,1263 1046,1286 997,1303 948,1320 893,1328 832,1328 725,1328 642,1304 583,1256 538,1219 515,1171 515,1110 515,1074 524,1042 543,1014 562,985 595,957 644,930 679,911 761,872 891,815 996,768 1069,732 1109,705 1162,670 1203,627 1232,577 1261,526 1275,469 1275,405 1275,326 1251,253 1203,186 1154,119 1087,67 1002,30 917,-7 819,-25 709,-25 543,-25 408,11 303,84 198,156 145,286 144,474 Z"/>
   <glyph unicode="P" horiz-adv-x="1324" d="M 88,0 L 395,1466 1007,1466 C 1113,1466 1193,1454 1246,1430 1299,1405 1342,1364 1377,1305 1412,1246 1429,1179 1429,1106 1429,1045 1417,984 1392,921 1367,858 1336,807 1299,766 1261,725 1223,695 1184,674 1145,653 1104,638 1060,628 966,606 871,595 775,595 L 408,595 284,0 88,0 Z M 443,761 L 766,761 C 891,761 983,775 1042,802 1101,829 1148,870 1183,925 1218,980 1236,1039 1236,1101 1236,1149 1227,1188 1208,1219 1189,1249 1163,1271 1129,1286 1095,1300 1030,1307 933,1307 L 557,1307 443,761 Z"/>
  </font>
 </defs>
 <defs>
  <font id="EmbeddedFont_2" horiz-adv-x="2048">
   <font-face font-family="Segoe UI embedded" units-per-em="2048" font-weight="normal" font-style="normal" ascent="2170" descent="529"/>
   <missing-glyph horiz-adv-x="2048" d="M 0,0 L 2047,0 2047,2047 0,2047 0,0 Z"/>
   <glyph unicode="é" horiz-adv-x="875" d="M 989,471 L 266,471 C 269,357 299,269 358,207 417,145 497,114 600,114 715,114 821,152 918,228 L 918,74 C 828,9 709,-24 561,-24 416,-24 303,23 220,116 137,209 96,339 96,508 96,667 141,797 232,898 322,998 434,1048 568,1048 702,1048 806,1005 879,918 952,831 989,711 989,557 L 989,471 Z M 821,610 C 820,705 798,778 753,831 708,884 645,910 565,910 488,910 422,882 368,827 314,772 281,699 268,610 L 821,610 Z M 795,1546 L 533,1218 406,1218 629,1546 795,1546 Z"/>
   <glyph unicode="É" horiz-adv-x="742" d="M 948,0 L 188,0 188,1434 916,1434 916,1282 356,1282 356,805 874,805 874,654 356,654 356,152 948,152 948,0 Z M 803,1893 L 541,1565 414,1565 637,1893 803,1893 Z"/>
   <glyph unicode="v" horiz-adv-x="954" d="M 971,1024 L 563,0 402,0 14,1024 194,1024 454,280 C 473,225 485,178 490,137 L 494,137 C 501,188 511,235 526,276 L 798,1024 971,1024 Z"/>
   <glyph unicode="u" horiz-adv-x="848" d="M 994,0 L 830,0 830,162 826,162 C 758,38 653,-24 510,-24 266,-24 144,121 144,412 L 144,1024 307,1024 307,438 C 307,222 390,114 555,114 635,114 701,144 753,203 804,262 830,339 830,434 L 830,1024 994,1024 994,0 Z"/>
   <glyph unicode="t" horiz-adv-x="584" d="M 641,10 C 602,-11 551,-22 488,-22 309,-22 219,78 219,278 L 219,884 43,884 43,1024 219,1024 219,1274 383,1327 383,1024 641,1024 641,884 383,884 383,307 C 383,238 395,189 418,160 441,131 480,116 534,116 575,116 611,127 641,150 L 641,10 Z"/>
   <glyph unicode="s" horiz-adv-x="662" d="M 104,37 L 104,213 C 193,147 292,114 399,114 543,114 615,162 615,258 615,285 609,309 597,328 584,347 568,363 547,378 526,393 501,406 473,418 444,429 414,441 381,454 336,472 296,490 262,509 227,527 199,548 176,571 153,594 135,620 124,649 112,678 106,713 106,752 106,800 117,843 139,880 161,917 190,948 227,973 264,998 306,1016 353,1029 400,1042 448,1048 498,1048 587,1048 666,1033 736,1002 L 736,836 C 661,885 574,910 476,910 445,910 418,907 393,900 368,893 347,883 330,870 312,857 298,842 289,825 279,807 274,787 274,766 274,739 279,717 289,699 298,681 312,665 331,651 350,637 372,624 399,613 426,602 456,589 490,576 535,559 576,541 612,523 648,504 679,484 704,461 729,438 749,411 763,381 776,351 783,315 783,274 783,223 772,179 750,142 727,105 697,74 660,49 623,24 580,6 531,-6 482,-18 431,-24 378,-24 273,-24 181,-4 104,37 Z"/>
   <glyph unicode="r" horiz-adv-x="530" d="M 700,858 C 671,880 630,891 576,891 506,891 448,858 401,792 354,726 330,636 330,522 L 330,0 166,0 166,1024 330,1024 330,813 334,813 C 357,885 393,941 441,982 489,1022 543,1042 602,1042 645,1042 677,1037 700,1028 L 700,858 Z"/>
   <glyph unicode="q" horiz-adv-x="927" d="M 1040,-471 L 876,-471 876,176 872,176 C 801,43 684,-24 522,-24 393,-24 290,22 213,114 135,205 96,330 96,488 96,658 139,794 224,896 309,997 424,1048 568,1048 708,1048 809,993 872,882 L 876,882 876,1024 1040,1024 1040,-471 Z M 876,461 L 876,610 C 876,694 849,765 794,823 739,881 669,910 584,910 485,910 407,874 350,801 293,728 264,625 264,492 264,374 292,282 347,215 402,148 474,114 561,114 657,114 734,147 791,213 848,278 876,361 876,461 Z"/>
   <glyph unicode="p" horiz-adv-x="927" d="M 334,148 L 330,148 330,-471 166,-471 166,1024 330,1024 330,844 334,844 C 415,980 533,1048 688,1048 820,1048 923,1002 997,911 1071,819 1108,696 1108,542 1108,371 1066,234 983,131 900,28 786,-24 641,-24 508,-24 406,33 334,148 Z M 330,561 L 330,418 C 330,333 358,262 413,203 468,144 537,114 622,114 721,114 799,152 856,228 912,304 940,410 940,545 940,659 914,748 861,813 808,878 737,910 647,910 552,910 475,877 417,811 359,744 330,661 330,561 Z"/>
   <glyph unicode="o" horiz-adv-x="1007" d="M 594,-24 C 443,-24 322,24 232,120 141,215 96,342 96,500 96,672 143,806 237,903 331,1000 458,1048 618,1048 771,1048 890,1001 976,907 1061,813 1104,683 1104,516 1104,353 1058,222 966,124 873,25 749,-24 594,-24 Z M 606,910 C 501,910 417,874 356,803 295,731 264,632 264,506 264,385 295,289 357,219 419,149 502,114 606,114 712,114 794,148 851,217 908,286 936,383 936,510 936,638 908,737 851,806 794,875 712,910 606,910 Z"/>
   <glyph unicode="n" horiz-adv-x="847" d="M 1016,0 L 852,0 852,584 C 852,801 773,910 614,910 532,910 464,879 411,818 357,756 330,678 330,584 L 330,0 166,0 166,1024 330,1024 330,854 334,854 C 411,983 523,1048 670,1048 782,1048 868,1012 927,940 986,867 1016,763 1016,626 L 1016,0 Z"/>
   <glyph unicode="m" horiz-adv-x="1430" d="M 1620,0 L 1456,0 1456,588 C 1456,701 1439,783 1404,834 1369,885 1310,910 1227,910 1157,910 1098,878 1049,814 1000,750 975,673 975,584 L 975,0 811,0 811,608 C 811,809 733,910 578,910 506,910 447,880 400,820 353,759 330,681 330,584 L 330,0 166,0 166,1024 330,1024 330,862 334,862 C 407,986 513,1048 652,1048 722,1048 783,1029 835,990 887,951 923,899 942,836 1018,977 1131,1048 1282,1048 1507,1048 1620,909 1620,631 L 1620,0 Z"/>
   <glyph unicode="l" horiz-adv-x="160" d="M 330,0 L 166,0 166,1516 330,1516 330,0 Z"/>
   <glyph unicode="i" horiz-adv-x="213" d="M 250,1284 C 221,1284 196,1294 175,1314 154,1334 144,1359 144,1390 144,1421 154,1446 175,1467 196,1487 221,1497 250,1497 280,1497 306,1487 327,1467 348,1446 358,1421 358,1390 358,1361 348,1336 327,1315 306,1294 280,1284 250,1284 Z M 330,0 L 166,0 166,1024 330,1024 330,0 Z"/>
   <glyph unicode="g" horiz-adv-x="927" d="M 1040,82 C 1040,-294 860,-482 500,-482 373,-482 263,-458 168,-410 L 168,-246 C 283,-310 393,-342 498,-342 750,-342 876,-208 876,60 L 876,172 872,172 C 794,41 677,-24 520,-24 393,-24 290,22 213,113 135,204 96,326 96,479 96,653 138,791 222,894 305,997 420,1048 565,1048 703,1048 805,993 872,882 L 876,882 876,1024 1040,1024 1040,82 Z M 876,463 L 876,614 C 876,695 849,765 794,823 739,881 670,910 588,910 487,910 407,873 350,800 293,726 264,623 264,490 264,376 292,285 347,217 402,148 474,114 565,114 657,114 732,147 790,212 847,277 876,361 876,463 Z"/>
   <glyph unicode="f" horiz-adv-x="609" d="M 672,1372 C 640,1390 604,1399 563,1399 448,1399 391,1327 391,1182 L 391,1024 631,1024 631,884 391,884 391,0 228,0 228,884 53,884 53,1024 228,1024 228,1190 C 228,1297 259,1382 321,1445 383,1507 460,1538 553,1538 603,1538 643,1532 672,1520 L 672,1372 Z"/>
   <glyph unicode="e" horiz-adv-x="875" d="M 989,471 L 266,471 C 269,357 299,269 358,207 417,145 497,114 600,114 715,114 821,152 918,228 L 918,74 C 828,9 709,-24 561,-24 416,-24 303,23 220,116 137,209 96,339 96,508 96,667 141,797 232,898 322,998 434,1048 568,1048 702,1048 806,1005 879,918 952,831 989,711 989,557 L 989,471 Z M 821,610 C 820,705 798,778 753,831 708,884 645,910 565,910 488,910 422,882 368,827 314,772 281,699 268,610 L 821,610 Z"/>
   <glyph unicode="d" horiz-adv-x="927" d="M 1040,0 L 876,0 876,174 872,174 C 796,42 679,-24 520,-24 391,-24 289,22 212,114 135,205 96,330 96,488 96,657 139,793 224,895 309,997 423,1048 565,1048 706,1048 808,993 872,882 L 876,882 876,1516 1040,1516 1040,0 Z M 876,463 L 876,614 C 876,697 849,767 794,824 739,881 670,910 586,910 486,910 407,873 350,800 293,727 264,625 264,496 264,378 292,285 347,217 402,148 475,114 568,114 659,114 734,147 791,213 848,279 876,362 876,463 Z"/>
   <glyph unicode="c" horiz-adv-x="769" d="M 864,47 C 785,0 692,-24 584,-24 438,-24 320,24 231,119 141,214 96,337 96,488 96,657 144,792 241,895 338,997 467,1048 628,1048 718,1048 797,1031 866,998 L 866,830 C 790,883 709,910 622,910 517,910 432,873 365,798 298,723 264,624 264,502 264,382 296,287 359,218 422,149 506,114 612,114 701,114 785,144 864,203 L 864,47 Z"/>
   <glyph unicode="a" horiz-adv-x="795" d="M 899,0 L 735,0 735,160 731,160 C 660,37 555,-24 416,-24 314,-24 234,3 177,57 119,111 90,183 90,272 90,463 203,575 428,606 L 735,649 C 735,823 665,910 524,910 401,910 289,868 190,784 L 190,952 C 291,1016 407,1048 538,1048 779,1048 899,921 899,666 L 899,0 Z M 735,518 L 488,484 C 412,473 355,455 316,428 277,401 258,353 258,284 258,234 276,193 312,162 347,130 395,114 454,114 535,114 603,143 656,200 709,257 735,329 735,416 L 735,518 Z"/>
   <glyph unicode="T" horiz-adv-x="980" d="M 1036,1282 L 622,1282 622,0 454,0 454,1282 41,1282 41,1434 1036,1434 1036,1282 Z"/>
   <glyph unicode="S" horiz-adv-x="874" d="M 121,58 L 121,256 C 144,236 171,218 203,202 234,186 268,173 303,162 338,151 373,142 408,136 443,130 476,127 506,127 609,127 687,146 738,185 789,223 814,278 814,350 814,389 806,422 789,451 772,480 748,506 718,530 688,553 653,576 612,598 571,619 526,642 479,666 429,691 382,717 339,743 296,769 258,798 226,829 194,860 169,896 151,936 132,975 123,1022 123,1075 123,1140 137,1197 166,1246 195,1294 232,1334 279,1365 326,1396 379,1420 439,1435 498,1450 559,1458 621,1458 762,1458 865,1441 930,1407 L 930,1218 C 845,1277 737,1306 604,1306 567,1306 531,1302 494,1295 457,1287 425,1274 396,1257 367,1240 344,1217 326,1190 308,1163 299,1129 299,1090 299,1053 306,1022 320,995 333,968 353,944 380,922 407,900 439,879 478,858 516,837 560,815 610,790 661,765 710,738 756,710 802,682 842,651 877,617 912,583 939,545 960,504 980,463 990,415 990,362 990,291 976,232 949,183 921,134 884,94 837,63 790,32 735,10 674,-3 613,-17 548,-24 480,-24 457,-24 429,-22 396,-18 363,-15 329,-9 294,-2 259,5 227,13 196,24 165,34 140,45 121,58 Z"/>
   <glyph unicode="R" horiz-adv-x="1007" d="M 1216,0 L 1016,0 776,402 C 754,439 733,471 712,498 691,524 670,545 649,562 627,579 604,591 579,599 554,606 525,610 494,610 L 356,610 356,0 188,0 188,1434 616,1434 C 679,1434 737,1426 790,1411 843,1395 889,1371 928,1339 967,1307 997,1267 1019,1220 1041,1172 1052,1116 1052,1052 1052,1002 1045,956 1030,915 1015,873 993,836 966,803 938,770 905,743 866,720 827,697 783,679 734,666 L 734,662 C 758,651 779,639 797,626 814,612 831,596 847,577 863,558 879,537 895,514 910,490 928,462 947,431 L 1216,0 Z M 356,1282 L 356,762 584,762 C 626,762 665,768 701,781 736,794 767,812 793,836 819,859 839,888 854,923 869,957 876,995 876,1038 876,1115 851,1175 802,1218 752,1261 680,1282 586,1282 L 356,1282 Z"/>
   <glyph unicode="O" horiz-adv-x="1351" d="M 766,-24 C 563,-24 400,43 278,177 155,311 94,485 94,700 94,931 156,1115 281,1252 406,1389 575,1458 790,1458 988,1458 1148,1391 1269,1258 1390,1125 1450,950 1450,735 1450,501 1388,316 1264,180 1140,44 974,-24 766,-24 Z M 778,1306 C 627,1306 505,1252 411,1143 317,1034 270,892 270,715 270,538 316,396 408,289 499,181 619,127 766,127 923,127 1047,178 1138,281 1229,384 1274,527 1274,712 1274,901 1230,1048 1142,1151 1054,1254 933,1306 778,1306 Z"/>
   <glyph unicode="N" horiz-adv-x="1139" d="M 1344,0 L 1138,0 400,1143 C 381,1172 366,1202 354,1233 L 348,1233 C 353,1202 356,1137 356,1036 L 356,0 188,0 188,1434 406,1434 1124,309 C 1154,262 1173,230 1182,213 L 1186,213 C 1179,254 1176,325 1176,424 L 1176,1434 1344,1434 1344,0 Z"/>
   <glyph unicode="F" horiz-adv-x="716" d="M 916,1282 L 356,1282 356,786 874,786 874,635 356,635 356,0 188,0 188,1434 916,1434 916,1282 Z"/>
   <glyph unicode="C" horiz-adv-x="1086" d="M 1164,60 C 1058,4 926,-24 768,-24 564,-24 401,42 278,173 155,304 94,477 94,690 94,919 163,1105 301,1246 439,1387 614,1458 826,1458 962,1458 1075,1438 1164,1399 L 1164,1220 C 1061,1277 948,1306 824,1306 659,1306 526,1251 424,1141 321,1031 270,884 270,700 270,525 318,386 414,283 509,179 635,127 790,127 934,127 1059,159 1164,223 L 1164,60 Z"/>
   <glyph unicode="A" horiz-adv-x="1297" d="M 1298,0 L 1112,0 960,402 352,402 209,0 22,0 572,1434 746,1434 1298,0 Z M 905,553 L 680,1164 C 673,1184 665,1216 658,1260 L 654,1260 C 647,1219 640,1187 631,1164 L 408,553 905,553 Z"/>
   <glyph unicode="-" horiz-adv-x="530" d="M 690,506 L 144,506 144,635 690,635 690,506 Z"/>
   <glyph unicode=" " horiz-adv-x="556"/>
  </font>
</defs>
</svg>
